<?xml version="1.0" standalone="no"?>
<!DOCTYPE svg PUBLIC "-//W3C//DTD SVG 1.1//EN" "http://www.w3.org/Graphics/SVG/1.1/DTD/svg11.dtd" >
<svg xmlns="http://www.w3.org/2000/svg">
	<metadata>Generated by IcoMoon</metadata>
	<defs>
		<font id="RegularLabs" horiz-adv-x="512">
			<font-face units-per-em="512" ascent="512" descent="0" />
			<missing-glyph horiz-adv-x="512" />
			<glyph unicode="&#x20;" horiz-adv-x="256" d="" />
			<glyph unicode="&#xe000;" glyph-name="regularlabs" d="M272 32h-32c-8.837 0-16-7.163-16-16s7.163-16 16-16h32c8.837 0 16 7.163 16 16s-7.163 16-16 16zM304 80h-96c-8.837 0-16-7.163-16-16s7.163-16 16-16h96c8.837 0 16 7.163 16 16s-7.163 16-16 16zM432.904 394.74c-9.671 22.865-23.514 43.397-41.141 61.025s-38.16 31.469-61.024 41.141c-23.681 10.016-48.827 15.094-74.739 15.094s-51.058-5.078-74.739-15.094c-22.865-9.671-43.397-23.513-61.025-41.141s-31.47-38.159-41.141-61.025c-10.017-23.681-15.095-48.827-15.095-74.74 0-36.041 10.049-71.175 29.063-101.602 16.722-26.762 39.734-48.971 66.938-64.7v-41.698c0-8.837 7.163-16 16-16h160c8.837 0 16 7.163 16 16v41.697c27.204 15.729 50.216 37.938 66.939 64.7 19.012 30.426 29.061 65.56 29.061 101.602 0 25.913-5.079 51.059-15.096 74.74zM391.801 235.355c-15.412-24.666-37.226-44.69-63.084-57.909-5.351-2.736-8.717-8.238-8.717-14.247v-35.2h-128v35.2c0 6.009-3.367 11.512-8.718 14.246-25.857 13.219-47.671 33.243-63.083 57.909-15.832 25.337-24.2 54.606-24.2 84.645 0 21.607 4.228 42.559 12.567 62.274 8.058 19.050 19.597 36.163 34.297 50.863s31.813 26.238 50.863 34.296c19.715 8.339 40.667 12.567 62.273 12.567s42.558-4.228 62.274-12.567c19.050-8.058 36.163-19.596 50.863-34.296s26.238-31.813 34.296-50.863c8.339-19.715 12.567-40.667 12.567-62.274 0-30.040-8.368-59.309-24.199-84.645zM256 448c-17.273 0-34.037-3.387-49.828-10.065-15.244-6.448-28.931-15.675-40.681-27.425s-20.977-25.438-27.424-40.682c-6.679-15.791-10.066-32.555-10.066-49.828 0-8.837 7.163-16 16-16s16 7.163 16 16c0 25.643 9.986 49.75 28.118 67.882s42.239 28.118 67.882 28.118c8.837 0 16 7.163 16 16s-7.163 16-16 16z" />
			<glyph unicode="&#xe001;" glyph-name="addtomenu" d="M496 223h-160c-8.837 0-16-7.164-16-16v-192c0-8.837 7.163-16 16-16h160c8.836 0 16 7.163 16 16v192c0 8.836-7.164 16-16 16zM480 191v-32h-128v32h128zM480 127v-32h-128v32h128zM352 31v32h128v-32h-128zM160 431c0-8.837-7.163-16-16-16h-64c-8.837 0-16 7.163-16 16s7.163 16 16 16h64c8.837 0 16-7.163 16-16zM208.067 302.934c10.275 10.275 15.933 23.935 15.933 38.467v115.199c0 14.53-5.659 28.191-15.933 38.466-10.275 10.275-23.936 15.934-38.467 15.934h-115.2c-14.531 0-28.192-5.659-38.467-15.933-10.275-10.276-15.933-23.937-15.933-38.467v-115.199c0-14.531 5.658-28.191 15.933-38.467s23.936-15.934 38.467-15.934h115.2c14.531 0 28.192 5.658 38.467 15.934zM32 341.401v115.199c0 12.351 10.049 22.4 22.4 22.4h115.2c12.352 0 22.4-10.049 22.4-22.4v-115.199c0-12.352-10.049-22.4-22.4-22.4h-115.2c-12.351-0.001-22.4 10.048-22.4 22.4zM252.097 100.534c-0.079-0.091-0.155-0.184-0.237-0.273-0.178-0.196-0.36-0.389-0.547-0.576l-31.999-31.999c-3.124-3.123-7.219-4.686-11.314-4.686s-8.189 1.563-11.314 4.686c-6.248 6.249-6.248 16.38 0 22.628l4.686 4.687h-89.372c-8.837 0-16 7.163-16 16 0 0.002 0 0.003 0 0.005v95.994c0 8.837 7.163 16 16 16 8.836 0 16-7.163 16-16v-80h73.372l-4.686 4.686c-6.248 6.249-6.248 16.38 0 22.628 6.249 6.249 16.379 6.249 22.627 0l31.999-31.999c0.187-0.187 0.369-0.379 0.547-0.575 0.082-0.090 0.158-0.183 0.237-0.274 0.091-0.105 0.184-0.209 0.273-0.317 0.098-0.12 0.191-0.242 0.286-0.364 0.064-0.082 0.129-0.164 0.192-0.248 0.101-0.135 0.197-0.273 0.292-0.411 0.052-0.074 0.105-0.147 0.156-0.224 0.096-0.143 0.187-0.287 0.277-0.432 0.047-0.076 0.096-0.15 0.142-0.228 0.086-0.143 0.167-0.287 0.249-0.432 0.047-0.084 0.095-0.167 0.141-0.253 0.073-0.137 0.143-0.275 0.212-0.414 0.049-0.097 0.099-0.193 0.145-0.293 0.060-0.126 0.116-0.254 0.172-0.381 0.051-0.115 0.102-0.23 0.15-0.347 0.047-0.112 0.090-0.227 0.135-0.34 0.052-0.134 0.104-0.268 0.151-0.403 0.036-0.099 0.068-0.199 0.101-0.299 0.050-0.15 0.1-0.301 0.146-0.453 0.027-0.088 0.051-0.177 0.076-0.266 0.046-0.164 0.092-0.328 0.133-0.493 0.021-0.082 0.038-0.165 0.057-0.247 0.040-0.171 0.079-0.342 0.113-0.516 0.017-0.084 0.030-0.169 0.045-0.253 0.031-0.171 0.062-0.341 0.087-0.513 0.014-0.098 0.024-0.195 0.037-0.293 0.020-0.158 0.042-0.317 0.057-0.478 0.013-0.13 0.020-0.259 0.030-0.389 0.009-0.13 0.021-0.26 0.028-0.391 0.012-0.249 0.018-0.498 0.019-0.747 0-0.015 0-0.028 0-0.043s0-0.028 0-0.043c0-0.249-0.007-0.498-0.019-0.746-0.006-0.132-0.019-0.261-0.028-0.392-0.010-0.13-0.017-0.259-0.030-0.388-0.016-0.161-0.037-0.319-0.057-0.479-0.013-0.098-0.023-0.195-0.037-0.293-0.025-0.172-0.056-0.342-0.087-0.513-0.015-0.084-0.028-0.169-0.045-0.253-0.034-0.173-0.073-0.344-0.113-0.516-0.019-0.082-0.037-0.164-0.057-0.247-0.041-0.165-0.087-0.329-0.133-0.493-0.025-0.088-0.049-0.178-0.076-0.266-0.046-0.152-0.096-0.303-0.146-0.453-0.033-0.1-0.066-0.199-0.101-0.299-0.048-0.136-0.1-0.27-0.152-0.402-0.044-0.114-0.087-0.229-0.134-0.341-0.048-0.116-0.099-0.231-0.15-0.347-0.057-0.127-0.112-0.255-0.172-0.381-0.047-0.099-0.096-0.195-0.145-0.293-0.069-0.139-0.139-0.277-0.212-0.414-0.046-0.085-0.094-0.168-0.141-0.252-0.081-0.146-0.163-0.29-0.249-0.433-0.046-0.077-0.095-0.151-0.142-0.228-0.091-0.145-0.182-0.289-0.277-0.432-0.050-0.075-0.104-0.148-0.156-0.224-0.096-0.138-0.192-0.276-0.292-0.411-0.063-0.084-0.128-0.165-0.192-0.248-0.095-0.121-0.188-0.244-0.286-0.364-0.088-0.103-0.181-0.206-0.272-0.313v0zM160 367c0-8.837-7.163-16-16-16h-64c-8.837 0-16 7.163-16 16s7.163 16 16 16h64c8.837 0 16-7.163 16-16z" />
			<glyph unicode="&#xe003;" glyph-name="advancedmodulemanager" d="M507.582 489.112l-8.907 15.439c-15.54-9.303-30.858-19.39-45.952-30.26-6.276 3.017-13.306 4.709-20.723 4.709h-352c-26.467 0-48-21.533-48-48v-352c0-26.468 21.532-48 48-48h352c26.467 0 48 21.532 48 48v352c0 11.091-3.783 21.314-10.123 29.451 12.362 10.081 24.93 19.636 37.705 28.661v0zM448 431v-352c0-8.822-7.178-16-16-16h-352c-8.822 0-16 7.178-16 16v352c0 8.822 7.178 16 16 16h337.294c-25.97-21.337-51.247-45.104-75.831-71.307-49.582-52.849-91.892-110.648-126.927-173.393l-10.688 23.752c-19.596 44.137-37.61 66.211-54.037 66.211-11.876 0-25.831-7.326-41.864-21.971 11.876-1.188 22.909-9.055 33.105-23.606 10.192-14.546 22.713-40.132 37.559-76.748l6.829-16.925c6.332-15.839 10.192-27.314 11.579-34.441 8.113 7.32 17.814 14.646 29.097 21.972l13.064 8.61c21.971 60.172 57.696 121.629 107.183 184.379 31.328 39.725 64.364 75.086 99.106 106.086 1.6-2.49 2.531-5.447 2.531-8.619v0z" />
			<glyph unicode="&#xe004;" glyph-name="articlesanywhere" d="M80 335c0 8.837 7.163 16 16 16h160c8.837 0 16-7.163 16-16s-7.163-16-16-16h-160c-8.837 0-16 7.163-16 16zM96 255h160c8.837 0 16 7.163 16 16s-7.163 16-16 16h-160c-8.837 0-16-7.163-16-16s7.163-16 16-16zM96 383h160c8.837 0 16 7.163 16 16s-7.163 16-16 16h-160c-8.837 0-16-7.163-16-16s7.163-16 16-16zM512 367v-256c0-26.467-21.533-48-48-48h-48v-16c0-26.467-21.533-48-48-48h-256c-26.468 0-48 21.533-48 48v112h-16c-26.468 0-48 21.533-48 48v256c0 26.467 21.533 48 48 48h256c26.467 0 48-21.533 48-48v-48h112c26.467 0 48-21.533 48-48zM48 191h256c8.822 0 16 7.178 16 16v256c0 8.822-7.178 16-16 16h-256c-8.822 0-16-7.178-16-16v-256c0-8.822 7.178-16 16-16zM384 63h-176c-20.859 0-38.65 13.376-45.254 32h-2.746c-8.837 0-16 7.163-16 16s7.163 16 16 16v32h-64v-112c0-8.822 7.178-16 16-16h256c8.822 0 16 7.178 16 16v16zM480 367c0 8.822-7.178 16-16 16h-112v-64h64c8.837 0 16-7.163 16-16s-7.163-16-16-16h-64v-31.984l64.004-0.016c8.837-0.003 15.998-7.168 15.996-16.004-0.003-8.835-7.166-15.996-16-15.996-0.003 0-0.003 0-0.004 0l-63.996 0.016v-16.016c0-5.608-0.971-10.993-2.745-16h66.745c8.837 0 16-7.163 16-16s-7.163-16-16-16h-224v-48c0-8.822 7.177-16 16-16h256c8.822 0 16 7.178 16 16v256z" />
			<glyph unicode="&#xe005;" glyph-name="betterpreview" d="M501.625 266.817c-4.474 4.659-111.082 114.169-245.625 114.169s-241.151-109.51-245.625-114.169l-10.375-10.817 10.375-10.817c4.473-4.659 111.081-114.169 245.625-114.169s241.151 109.51 245.625 114.169l10.375 10.817-10.375 10.817zM152.941 185.389c-50.563 21.967-90.072 54.029-108.561 70.611 18.492 16.584 57.999 48.642 108.561 70.61-13.817-20.106-21.928-44.425-21.928-70.61s8.111-50.505 21.928-70.611zM256 162.26c-51.688 0-93.74 42.052-93.74 93.74s42.052 93.74 93.74 93.74 93.74-42.052 93.74-93.74c0-51.688-42.052-93.74-93.74-93.74zM359.059 185.389c13.817 20.106 21.928 44.425 21.928 70.611 0 26.184-8.111 50.505-21.928 70.61 50.562-21.967 90.072-54.029 108.561-70.61-18.491-16.584-57.999-48.643-108.561-70.611zM256 287.246c-17.258 0-31.246-13.988-31.246-31.246s13.988-31.247 31.246-31.247c17.259 0 31.247 13.988 31.247 31.247s-13.988 31.246-31.247 31.246z" />
			<glyph unicode="&#xe006;" glyph-name="cachecleaner" d="M391.873 209.072l-368-207.999c-2.475-1.4-5.183-2.073-7.863-2.073-4.859 0-9.627 2.213-12.748 6.319-4.842 6.37-4.234 15.338 1.424 20.995l220.018 220.017-100.584 25.147c-6.352 1.588-11.095 6.886-11.974 13.373s2.282 12.856 7.982 16.078l368 207.999c6.965 3.938 15.769 2.123 20.611-4.247s4.233-15.338-1.425-20.996l-220.018-220.016 100.585-25.146c6.352-1.588 11.095-6.886 11.975-13.373 0.879-6.488-2.283-12.857-7.983-16.078v0zM116.686 371.686c3.125-3.125 7.219-4.687 11.314-4.687s8.189 1.562 11.313 4.687c6.249 6.248 6.249 16.379 0 22.627l-112 112c-6.249 6.248-16.379 6.248-22.627 0-6.249-6.248-6.249-16.38 0-22.628l112-111.999zM507.314 26.315l-112 112c-6.249 6.248-16.379 6.248-22.628 0s-6.248-16.379 0-22.628l112-111.999c3.125-3.124 7.219-4.686 11.314-4.686s8.189 1.562 11.313 4.686c6.249 6.248 6.249 16.379 0.001 22.627z" />
			<glyph unicode="&#xe007;" glyph-name="cdnforjoomla" d="M469.88 323.361c-23.437 18.652-54.276 30.708-87.678 34.417-3.404 6.409-7.651 12.492-12.694 18.165-7.133 8.024-15.7 15.055-25.463 20.896-19.86 11.881-43.39 18.161-68.045 18.161-22.133 0-43.644-5.148-62.206-14.89-13.055-6.849-24.226-15.722-32.969-26.092-11.304 5.855-23.944 8.982-36.825 8.982-10.793 0-21.271-2.117-31.145-6.293-9.528-4.030-18.083-9.797-25.424-17.139-7.342-7.342-13.108-15.896-17.138-25.424-2.771-6.552-4.63-13.37-5.57-20.369-16.603-5.738-31.502-16.021-42.795-29.705-6.945-8.414-12.361-17.856-16.098-28.063-3.868-10.564-5.83-21.669-5.83-33.007 0-12.952 2.541-25.525 7.551-37.371 4.836-11.434 11.755-21.699 20.567-30.511s19.076-15.731 30.51-20.567c11.845-5.011 24.42-7.551 37.372-7.551 11.108 0 22.001 1.885 32.379 5.602 3.735 1.338 7.369 2.902 10.892 4.683 6.338-9.899 15.159-18.668 25.907-25.597 8.272-5.332 17.474-9.475 27.349-12.313 10.099-2.903 20.688-4.375 31.473-4.375 19.619 0 38.474 4.865 54.524 14.071 11.618 6.663 21.181 15.232 28.21 25.189 16.954-4.82 34.811-7.26 53.266-7.26 39.712 0 77.23 11.506 105.645 32.399 14.29 10.507 25.574 22.854 33.537 36.698 8.506 14.787 12.818 30.567 12.818 46.903 0 30.204-14.959 58.744-42.12 80.361zM446.688 185.18c-22.959-16.883-53.746-26.18-86.688-26.18-19.42 0-37.963 3.19-55.115 9.483-0.042 0.015-0.084 0.027-0.125 0.042-0.209 0.075-0.416 0.146-0.625 0.212-0.029 0.009-0.058 0.017-0.087 0.026-0.24 0.074-0.481 0.143-0.724 0.205-0.004 0-0.008 0.002-0.013 0.003-7.415 1.898-15.336-1.756-18.562-8.98-8.807-19.733-33.221-32.991-60.749-32.991-29.856 0-56.125 15.912-62.54 37.854-0.022 0.080-0.046 0.161-0.070 0.241-0.921 3.234-1.39 6.566-1.39 9.905 0 8.837-7.163 16-16 16s-16-7.163-16-16c0-2.416 0.13-4.828 0.387-7.227-9.762-5.763-20.799-8.773-32.386-8.773-35.29 0-64 28.71-64 64 0 30.234 21.432 56.574 50.975 62.676 0.078 0.016 0.155 0.031 0.232 0.047 4.176 0.847 8.479 1.277 12.792 1.277 8.836 0 16 7.163 16 16 0 7.928-5.768 14.505-13.334 15.774 6.54 18.742 24.391 32.226 45.334 32.226 11.103 0 21.902-3.869 30.453-10.897 0.688-0.599 1.439-1.144 2.246-1.63 0.007-0.005 0.014-0.009 0.021-0.013 0.109-0.065 0.215-0.134 0.326-0.197 0.108-0.062 0.218-0.117 0.327-0.176 0.021-0.012 0.043-0.023 0.065-0.035 0.217-0.116 0.435-0.226 0.655-0.331 0.014-0.007 0.028-0.014 0.042-0.021 7.362-3.489 16.253-0.87 20.516 6.175 0.015 0.024 0.030 0.049 0.045 0.074 0.058 0.097 0.118 0.189 0.174 0.287 13.426 23.549 43.702 38.764 77.13 38.764 36.851 0 69.935-18.85 80.531-45.858 0.070-0.19 0.141-0.38 0.218-0.567 2.156-5.688 3.251-11.598 3.251-17.575 0-8.837 7.163-16 16-16s16 7.163 16 16c0 1.659-0.056 3.314-0.156 4.964 50.844-9.922 88.156-42.97 88.156-80.964 0-21.49-11.83-42.025-33.312-57.82z" />
			<glyph unicode="&#xe008;" glyph-name="componentsanywhere" d="M457.599 416h-105.599v41.6c0 29.997-24.404 54.4-54.401 54.4h-243.2c-29.997 0-54.4-24.403-54.4-54.4v-243.2c0-29.997 24.403-54.4 54.4-54.4h9.6v-105.599c0-29.998 24.403-54.401 54.4-54.401h243.2c29.997 0 54.401 24.403 54.401 54.401v9.599h41.599c29.997 0 54.401 24.403 54.401 54.401v243.2c-0 29.997-24.404 54.4-54.401 54.4zM32 214.401v243.2c0 12.35 10.050 22.4 22.4 22.4h243.2c12.35 0 22.4-10.050 22.4-22.4v-243.2c0-12.35-10.050-22.4-22.401-22.4h-243.2c-12.35 0-22.4 10.050-22.4 22.401zM384 54.401c0-12.35-10.050-22.401-22.401-22.401h-243.2c-12.35 0-22.4 10.050-22.4 22.401v105.599h64v-41.599c0-29.998 24.403-54.401 54.4-54.401h169.6v-9.599zM480 118.401c0-12.35-10.050-22.401-22.401-22.401h-243.2c-12.35 0-22.4 10.050-22.4 22.401v41.599h105.6c29.997 0 54.401 24.403 54.401 54.401v169.599h105.6c12.35 0 22.401-10.050 22.401-22.4v-243.2z" />
			<glyph unicode="&#xe009;" glyph-name="contenttemplater" d="M80 335c0 8.837 7.163 16 16 16h160c8.837 0 16-7.163 16-16s-7.163-16-16-16h-160c-8.837 0-16 7.163-16 16zM272 271c0 8.837-7.163 16-16 16h-160c-8.837 0-16-7.163-16-16s7.163-16 16-16h160c8.837 0 16 7.163 16 16zM96 383h160c8.837 0 16 7.163 16 16s-7.163 16-16 16h-160c-8.837 0-16-7.163-16-16s7.163-16 16-16zM512 335v-288c0-26.467-21.533-48-48-48h-288c-26.467 0-48 21.533-48 48v112h-80c-26.468 0-48 21.533-48 48v256c0 26.467 21.533 48 48 48h256c26.467 0 48-21.533 48-48v-80h112c26.467 0 48-21.533 48-48zM48 191h256c8.822 0 16 7.178 16 16v256c0 8.822-7.178 16-16 16h-256c-8.822 0-16-7.178-16-16v-256c0-8.822 7.178-16 16-16zM480 335c0 8.822-7.178 16-16 16h-112v-144c0-26.467-21.533-48-48-48h-144v-112c0-8.822 7.177-16 16-16h288c8.822 0 16 7.178 16 16v288z" />
			<glyph unicode="&#xe00a;" glyph-name="dbreplacer" d="M512 431c0 7.946-2.753 15.563-8.183 22.639-4.308 5.615-10.413 10.934-18.145 15.808-13.454 8.482-32.243 15.975-55.845 22.269-46.634 12.435-108.368 19.284-173.827 19.284s-127.192-6.849-173.828-19.285c-23.602-6.294-42.391-13.786-55.845-22.269-7.731-4.874-13.836-10.192-18.145-15.808-5.429-7.075-8.182-14.691-8.182-22.638v0-352c0-7.946 2.753-15.563 8.182-22.639 4.309-5.615 10.414-10.934 18.145-15.808 13.454-8.483 32.243-15.975 55.844-22.269 46.637-12.435 108.37-19.284 173.829-19.284s127.192 6.849 173.828 19.285c23.602 6.294 42.391 13.786 55.845 22.269 7.731 4.874 13.836 10.192 18.145 15.808 5.429 7.075 8.182 14.692 8.182 22.638v352zM43.394 442.377c10.57 6.665 26.831 13.033 47.023 18.418 44.024 11.74 102.828 18.205 165.583 18.205s121.56-6.465 165.583-18.205c20.192-5.385 36.453-11.753 47.023-18.418 9.347-5.892 11.394-10.211 11.394-11.377 0-1.167-2.047-5.484-11.394-11.378-10.57-6.664-26.831-13.033-47.023-18.418-44.023-11.739-102.828-18.204-165.583-18.204s-121.56 6.465-165.583 18.204c-20.192 5.385-36.453 11.754-47.023 18.418-9.347 5.894-11.394 10.211-11.394 11.378s2.047 5.485 11.394 11.377zM468.607 67.622c-10.571-6.664-26.831-13.033-47.023-18.418-44.024-11.739-102.829-18.204-165.584-18.204s-121.56 6.465-165.583 18.204c-20.192 5.385-36.453 11.754-47.023 18.418-9.347 5.894-11.394 10.212-11.394 11.378v310.211c12.885-7.117 29.72-13.473 50.172-18.926 46.636-12.436 108.37-19.285 173.828-19.285 65.459 0 127.192 6.849 173.828 19.285 20.453 5.453 37.287 11.809 50.172 18.927v-310.212c0-1.166-2.047-5.484-11.393-11.378zM305.666 165.737c-5.34-12.623-12.98-23.958-22.713-33.689-9.731-9.732-21.066-17.373-33.69-22.713-13.074-5.531-26.957-8.335-41.263-8.335s-28.188 2.804-41.263 8.334c-12.624 5.34-23.958 12.981-33.69 22.713s-17.374 21.066-22.712 33.69c-5.531 13.075-8.335 26.958-8.335 41.263s2.804 28.188 8.334 41.264c5.339 12.623 12.981 23.958 22.712 33.689 9.732 9.732 21.067 17.373 33.69 22.713 13.076 5.53 26.959 8.334 41.264 8.334 5.523 0 10-4.477 10-10s-4.477-10-10-10c-47.421 0-86-38.579-86-86s38.579-86 86-86c41.964 0 76.998 30.214 84.507 70.028-2.898-3.512-7.933-4.696-12.179-2.573-4.94 2.471-6.942 8.477-4.473 13.417l28.145 56.289 28.145-56.289c2.469-4.94 0.467-10.946-4.473-13.417-1.436-0.717-2.962-1.057-4.465-1.057-3.668 0-7.199 2.025-8.951 5.529l-0.945 1.891c-1.143-10.011-3.699-19.751-7.645-29.081zM401.666 248.264c5.53-13.075 8.334-26.958 8.334-41.264s-2.805-28.188-8.334-41.264c-5.34-12.623-12.981-23.958-22.713-33.689-9.731-9.732-21.066-17.373-33.69-22.713-13.075-5.53-26.958-8.334-41.263-8.334-5.523 0-10 4.477-10 10 0 5.522 4.477 10 10 10 47.42 0 86 38.579 86 86s-38.58 86-86 86c-41.965 0-76.999-30.214-84.507-70.029 2.898 3.512 7.932 4.697 12.179 2.574 4.94-2.471 6.942-8.477 4.473-13.417l-28.145-56.289-28.145 56.289c-2.47 4.939-0.467 10.946 4.473 13.416s10.946 0.468 13.416-4.472l0.945-1.891c1.142 10.012 3.699 19.752 7.645 29.081 5.339 12.624 12.981 23.958 22.713 33.69 9.731 9.731 21.066 17.373 33.689 22.712 13.076 5.532 26.959 8.336 41.264 8.336s28.188-2.805 41.264-8.334c12.623-5.34 23.958-12.981 33.689-22.713s17.373-21.066 22.713-33.689z" />
			<glyph unicode="&#xe00b;" glyph-name="emailprotector" d="M464 448h-416c-26.469 0-48-21.531-48-48v-288c0-26.469 21.532-48 48-48h416c26.469 0 48 21.531 48 48v288c0 26.469-21.531 48-48 48zM32 393.375l137.375-137.375-137.375-137.375v274.75zM256 214.625l-201.375 201.375h402.75l-201.375-201.375zM192 233.375l52.688-52.688c3.121-3.125 7.219-4.688 11.313-4.688s8.19 1.563 11.313 4.688l52.688 52.688 137.375-137.375h-402.75l137.375 137.375zM342.625 256l137.375 137.375v-274.75l-137.375 137.375z" />
			<glyph unicode="&#xe00c;" glyph-name="modals" d="M448 367c0 26.467-21.533 48-48 48h-288c-26.468 0-48-21.533-48-48v-224c0-26.467 21.533-48 48-48h288c26.467 0 48 21.533 48 48v224zM416 143c0-8.822-7.178-16-16-16h-288c-8.822 0-16 7.178-16 16v224c0 8.822 7.178 16 16 16h288c8.822 0 16-7.178 16-16v-224zM0 419.363c0 15.929 6.203 30.905 17.466 42.17 11.265 11.264 26.24 17.467 42.17 17.467 8.837 0 16-7.163 16-16s-7.163-16-16-16c-15.238 0-27.636-12.398-27.636-27.637 0-8.837-7.164-16-16-16s-16 7.163-16 16zM75.636 47c0-8.837-7.163-16-16-16-15.93 0-30.906 6.203-42.169 17.466-11.264 11.264-17.467 26.24-17.467 42.171 0 8.837 7.163 16 16 16 8.836 0 16-7.163 16-16 0-15.238 12.398-27.637 27.636-27.637 8.837 0 16-7.163 16-16zM512 90.637c0-15.931-6.203-30.907-17.467-42.171-11.263-11.263-26.239-17.466-42.169-17.466-8.836 0-16 7.163-16 16s7.164 16 16 16c15.239 0 27.636 12.399 27.636 27.637 0 8.837 7.163 16 16 16s16-7.163 16-16zM436.364 463c0 8.837 7.164 16 16 16 15.931 0 30.906-6.203 42.17-17.468s17.466-26.241 17.466-42.169c0-8.837-7.163-16-16-16s-16 7.163-16 16c0 15.239-12.397 27.637-27.636 27.637-8.836 0-16 7.163-16 16z" />
			<glyph unicode="&#xe00d;" glyph-name="modulesanywhere" d="M496.068 399.067c-10.276 10.274-23.937 15.933-38.468 15.933h-105.6v41.6c0 14.53-5.658 28.191-15.934 38.466-10.274 10.275-23.935 15.934-38.466 15.934h-243.2c-14.53 0-28.191-5.659-38.467-15.934s-15.933-23.936-15.933-38.466v-243.2c0-14.53 5.658-28.19 15.933-38.466s23.936-15.934 38.467-15.934h9.6v-105.6c0-14.53 5.658-28.191 15.933-38.467 10.275-10.274 23.936-15.933 38.467-15.933h243.2c14.531 0 28.191 5.659 38.467 15.934 10.275 10.275 15.933 23.936 15.933 38.467v9.599h41.6c14.531 0 28.192 5.658 38.467 15.934 10.275 10.275 15.933 23.935 15.933 38.466v243.2c0 14.53-5.658 28.191-15.932 38.467v0zM457.6 383c12.352 0 22.4-10.049 22.4-22.4v-9.6h-128v32h105.6zM54.4 479h243.2c12.352 0 22.4-10.049 22.4-22.4v-9.6h-288v9.6c0 12.351 10.048 22.4 22.4 22.4zM32 213.4v201.6h288v-201.6c0-12.351-10.049-22.4-22.4-22.4h-243.2c-12.352 0-22.4 10.049-22.4 22.4zM384 53.401c0-12.352-10.049-22.4-22.4-22.4h-243.2c-12.352 0-22.4 10.049-22.4 22.4v105.599h64v-41.6c0-14.53 5.659-28.191 15.933-38.467 10.275-10.274 23.935-15.933 38.467-15.933h169.6v-9.599zM457.6 95h-243.2c-12.351 0-22.399 10.049-22.399 22.4v41.6h105.6c14.531 0 28.192 5.658 38.467 15.934 10.274 10.275 15.932 23.935 15.932 38.466v105.6h128v-201.6c0-12.351-10.049-22.4-22.4-22.4z" />
			<glyph unicode="&#xe00e;" glyph-name="rereplacer" d="M338.162 186.489c-8.865-20.96-21.553-39.781-37.711-55.939s-34.979-28.846-55.939-37.711c-21.708-9.183-44.759-13.839-68.512-13.839s-46.804 4.656-68.512 13.838c-20.96 8.865-39.78 21.553-55.939 37.711s-28.846 34.979-37.711 55.939c-9.182 21.709-13.838 44.759-13.838 68.512s4.656 46.804 13.837 68.512c8.865 20.96 21.553 39.781 37.711 55.939s34.979 28.846 55.939 37.711c21.71 9.183 44.76 13.838 68.513 13.838 8.837 0 16-7.163 16-16s-7.163-16-16-16c-79.402 0-144-64.599-144-144 0-79.402 64.598-144 144-144 71.359 0 130.761 52.174 142.063 120.379-4.092-7.561-13.473-10.563-21.219-6.689-7.902 3.951-11.106 13.563-7.154 21.466l46.31 92.622 46.311-92.622c3.952-7.903 0.748-17.515-7.155-21.466-2.297-1.148-4.739-1.693-7.143-1.693-5.87 0-11.521 3.241-14.323 8.848l-2.592 5.184c-1.76-17.417-6.088-34.352-12.936-50.54v0zM498.162 323.512c-8.865 20.96-21.553 39.781-37.712 55.939s-34.979 28.846-55.938 37.711c-21.709 9.183-44.76 13.838-68.512 13.838-23.754 0-46.805-4.655-68.513-13.838-20.96-8.865-39.78-21.553-55.938-37.711s-28.846-34.979-37.711-55.939c-6.847-16.188-11.175-33.123-12.935-50.539l-2.591 5.183c-3.952 7.903-13.562 11.107-21.466 7.155-7.903-3.952-11.107-13.563-7.155-21.467l46.309-92.621 46.311 92.622c3.952 7.903 0.748 17.515-7.155 21.466-7.746 3.873-17.127 0.87-21.218-6.689 11.301 68.204 70.703 120.378 142.062 120.378 79.401 0 144-64.599 144-144s-64.599-144-144-144c-8.837 0-16-7.163-16-16s7.163-16 16-16c23.753 0 46.803 4.656 68.512 13.838 20.96 8.865 39.78 21.553 55.939 37.711s28.846 34.979 37.711 55.939c9.183 21.71 13.838 44.76 13.838 68.512s-4.655 46.804-13.838 68.512v0z" />
			<glyph unicode="&#xe00f;" glyph-name="sliders" d="M496.067 399.028c-4.721 4.721-10.159 8.464-16.066 11.135v46.443c0 14.529-5.658 28.188-15.933 38.462-10.276 10.274-23.937 15.932-38.468 15.932h-339.2c-14.531 0-28.192-5.658-38.467-15.932s-15.933-23.933-15.933-38.462v-46.443c-5.907-2.671-11.346-6.414-16.067-11.135-10.275-10.275-15.933-23.934-15.933-38.463v-307.17c0-14.528 5.658-28.188 15.933-38.462s23.936-15.933 38.467-15.933h403.2c14.531 0 28.192 5.658 38.467 15.933s15.933 23.933 15.933 38.462v307.17c0 14.529-5.658 28.188-15.933 38.463zM64 456.606c0 12.351 10.048 22.398 22.4 22.398h339.2c12.352 0 22.4-10.048 22.4-22.398v-41.646h-384v41.646zM480 53.395c0-12.35-10.049-22.397-22.4-22.397h-403.2c-12.352-0.001-22.4 10.046-22.4 22.397v307.17c0 12.351 10.048 22.398 22.399 22.398h403.2c12.352 0 22.4-10.048 22.4-22.398v-307.17zM203.314 202.294c6.249-6.247 6.249-16.378 0-22.626l-59.314-59.307-59.314 59.308c-6.249 6.248-6.249 16.379 0 22.626s16.379 6.247 22.627 0l20.687-20.685v89.364c0 8.836 7.163 15.998 16 15.998s16-7.162 16-15.998v-89.364l20.686 20.685c6.249 6.246 16.38 6.246 22.628-0.001zM427.314 234.291c6.249-6.248 6.249-16.378 0-22.626-3.124-3.124-7.219-4.686-11.313-4.686s-8.189 1.562-11.313 4.686l-20.688 20.685v-89.363c0-8.836-7.163-15.999-16-15.999s-16 7.163-16 15.999v89.363l-20.687-20.685c-6.248-6.247-16.379-6.247-22.628 0s-6.248 16.378 0 22.626l59.315 59.308 59.314-59.308z" />
			<glyph unicode="&#xe010;" glyph-name="snippets" d="M441.707 142.144c-4.030 9.528-9.797 18.082-17.139 25.425-7.342 7.342-15.896 13.107-25.424 17.138-9.872 4.175-20.351 6.293-31.144 6.293s-21.271-2.118-31.145-6.294c-3.871-1.638-7.579-3.566-11.112-5.766l-50.356 73.598 137.818 201.427c4.989 7.293 3.123 17.25-4.17 22.239-7.294 4.99-17.251 3.123-22.24-4.17l-130.795-191.162-130.795 191.162c-4.99 7.293-14.947 9.16-22.24 4.17-7.292-4.989-9.16-14.946-4.17-22.239l137.818-201.427-50.356-73.599c-3.534 2.2-7.241 4.129-11.113 5.767-9.873 4.176-20.351 6.294-31.144 6.294s-21.271-2.118-31.144-6.294c-9.528-4.030-18.082-9.796-25.424-17.138-7.342-7.343-13.108-15.896-17.138-25.425-4.177-9.872-6.294-20.351-6.294-31.144s2.117-21.271 6.293-31.145c4.030-9.528 9.796-18.082 17.138-25.424s15.896-13.108 25.424-17.138c9.874-4.175 20.352-6.292 31.145-6.292s21.271 2.117 31.144 6.293c9.528 4.029 18.083 9.796 25.425 17.138s13.108 15.896 17.138 25.424c4.176 9.873 6.294 20.352 6.294 31.145s-2.118 21.271-6.294 31.145c-2.161 5.111-4.828 9.938-7.964 14.453l46.257 67.605 46.257-67.606c-3.136-4.515-5.802-9.342-7.964-14.453-4.176-9.873-6.293-20.352-6.293-31.145 0-10.792 2.117-21.271 6.293-31.144 4.030-9.528 9.797-18.082 17.139-25.424s15.896-13.108 25.424-17.139c9.873-4.176 20.352-6.294 31.145-6.294s21.271 2.118 31.145 6.294c9.528 4.030 18.082 9.797 25.424 17.139s13.108 15.896 17.139 25.424c4.176 9.873 6.293 20.352 6.293 31.144-0.002 10.793-2.119 21.272-6.295 31.145zM144 63c-26.467 0-48 21.532-48 47.999s21.532 48.001 48 48.001 48-21.533 48-48.001c0-26.467-21.533-47.999-48-47.999zM368 63c-26.467 0-48 21.532-48 47.999s21.533 48.001 48 48.001 48-21.533 48-48.001c0-26.467-21.533-47.999-48-47.999z" />
			<glyph unicode="&#xe011;" glyph-name="sourcerer" d="M219.314 403.686l-148.686-148.686 148.686-148.687c6.249-6.248 6.249-16.379 0-22.628-3.124-3.122-7.219-4.685-11.314-4.685s-8.189 1.563-11.314 4.686l-171.314 171.314 171.314 171.314c6.249 6.249 16.379 6.249 22.627 0 6.249-6.248 6.249-16.379 0.001-22.628zM315.314 426.314c-6.248 6.249-16.379 6.249-22.628 0-6.248-6.248-6.248-16.379 0-22.628l148.686-148.686-148.686-148.686c-6.248-6.248-6.248-16.379 0-22.628 3.125-3.123 7.22-4.686 11.314-4.686s8.189 1.563 11.313 4.686l171.314 171.314-171.313 171.314z" />
			<glyph unicode="&#xe012;" glyph-name="tabs" d="M496.431 398.9c-4.773 4.915-10.302 8.808-16.431 11.575v46.125c0 7.464-1.584 14.725-4.707 21.58-2.934 6.439-7.088 12.225-12.347 17.197-5.158 4.878-11.108 8.717-17.685 11.411-6.821 2.795-13.975 4.212-21.261 4.212h-81.6c-8.088 0-15.907-1.747-23.067-5.111-0.684 0.312-1.373 0.613-2.071 0.899-6.822 2.795-13.977 4.212-21.262 4.212h-81.6c-8.088 0-15.907-1.747-23.068-5.111-0.684 0.313-1.373 0.613-2.071 0.899-6.822 2.795-13.976 4.212-21.261 4.212h-81.6c-14.531 0-28.192-5.659-38.467-15.933-10.275-10.276-15.933-23.937-15.933-38.467v-46.69c-5.792-2.618-11.101-6.208-15.706-10.685-10.508-10.214-16.294-23.931-16.294-38.625v-307.199c0-14.53 5.658-28.191 15.933-38.467 10.275-10.275 23.936-15.934 38.467-15.934h403.2c14.531 0 28.192 5.659 38.467 15.934s15.933 23.936 15.933 38.467v307.199c0 14.36-5.529 27.962-15.569 38.3zM448 456.6v-41.6h-96v41.6c0 7.464-1.584 14.725-4.707 21.58-0.126 0.275-0.256 0.547-0.387 0.82h77.094c12.785 0 24-10.467 24-22.4zM320 456.6v-41.6h-96v41.6c0 7.464-1.584 14.725-4.708 21.58-0.125 0.275-0.256 0.547-0.386 0.82h77.094c12.785 0 24-10.467 24-22.4zM86.4 479h81.6c12.785 0 24-10.467 24-22.4v-41.6h-128v41.6c0 12.351 10.049 22.4 22.4 22.4zM480 53.401c0-12.352-10.049-22.4-22.4-22.4h-403.2c-12.352-0.001-22.4 10.048-22.4 22.4v307.199c0 12.77 10.318 22.4 24 22.4h403.2c11.080 0 20.8-10.467 20.8-22.4v-307.199zM432 303c0-8.837-7.163-16-16-16h-320c-8.837 0-16 7.163-16 16s7.163 16 16 16h320c8.837 0 16-7.163 16-16zM432 111c0-8.837-7.163-16-16-16h-320c-8.837 0-16 7.163-16 16s7.163 16 16 16h320c8.837 0 16-7.163 16-16zM432 207c0-8.837-7.163-16-16-16h-320c-8.837 0-16 7.163-16 16s7.163 16 16 16h320c8.837 0 16-7.163 16-16z" />
			<glyph unicode="&#xe014;" glyph-name="tooltips" d="M496.432 431.898c-4.846 4.99-10.467 8.928-16.707 11.703-6.563 2.919-13.469 4.399-20.526 4.399h-403.199c-15.14 0-29.241-5.603-39.706-15.776-10.508-10.216-16.294-23.934-16.294-38.628v-211.191c0-14.531 5.658-28.192 15.933-38.469 10.274-10.277 23.936-15.936 38.467-15.936h41.6v-80c0-6.472 3.898-12.306 9.877-14.782 1.979-0.819 4.058-1.219 6.119-1.219 4.164 0 8.257 1.626 11.317 4.687l91.314 91.314h242.973c14.531 0 28.193 5.659 38.467 15.936s15.933 23.937 15.933 38.469v211.191c0 14.361-5.529 27.963-15.568 38.302zM480 182.405c0-12.354-10.049-22.405-22.4-22.405h-249.6c-4.244 0-8.313-1.686-11.314-4.687l-68.686-68.686v57.373c0 8.836-7.164 16-16 16h-57.6c-12.352 0-22.4 10.051-22.4 22.405v211.191c0 12.772 10.317 22.404 24 22.404h403.2c11.080 0 20.8-10.469 20.8-22.404v-211.191z" />
			<glyph unicode="&#xe015;" glyph-name="advancedtemplatemanager" d="M475.313 475.313c-6.243 6.25-16.382 6.25-22.625 0l-264.601-264.601c-12.65 8.387-27.803 13.289-44.086 13.289-44.112 0-80-35.887-80-80 0-42.421-29.032-86.7-29.313-87.125-4.231-6.347-3.394-14.797 2-20.188 3.090-3.094 7.188-4.688 11.319-4.688 3.072 0 6.163 0.882 8.868 2.688 0.441 0.293 44.463 29.313 87.125 29.313 44.113 0 80 35.887 80 80 0 16.283-4.901 31.436-13.289 44.086l264.601 264.601c6.25 6.246 6.25 16.378 0 22.625z" />
			<glyph unicode="&#xe016;" glyph-name="iplogin" d="M112 448c-26.469 0-48-21.531-48-48s21.531-48 48-48 48 21.531 48 48-21.531 48-48 48zM112 384c-8.822 0-16 7.178-16 16s7.178 16 16 16 16-7.178 16-16-7.178-16-16-16zM307.865 290.76c8.060 19.372 12.135 39.919 12.135 61.24 0 88.225-71.775 160-160 160s-160-71.775-160-160 71.775-160 160-160c21.322 0 41.869 4.075 61.24 12.135l44.131-44.135h22.628v-22.628l41.372-41.372h22.628v-22.628l73.372-73.372h86.628v86.628l-204.135 204.131zM480 32h-41.372l-54.628 54.628v41.372h-41.372l-22.628 22.628v41.372h-41.372l-50.806 50.806-10.331-5.204c-17.919-9.028-37.262-13.603-57.49-13.603-70.578 0-128 57.422-128 128s57.422 128 128 128 128-57.422 128-128c0-20.228-4.575-39.572-13.603-57.49l-5.204-10.331 210.807-210.807v-41.372z" />
			<glyph unicode="&#xe017;" glyph-name="dummycontent" d="M464 512h-416c-26.469 0-48-21.531-48-48v-416c0-26.469 21.532-48 48-48h416c26.469 0 48 21.531 48 47.997v416c0 26.466-21.531 48-48 48.003zM480 47.997c0-8.822-7.178-15.997-16-15.997h-416c-8.822 0-16 7.178-16 16v416c0 8.822 7.178 16 16 16h415.997c8.825 0 16.003-7.182 16.003-16.004v-416zM416 128h-320c-8.838 0-16-7.163-16-16s7.162-16 16-16h320c8.838 0 16 7.162 16 16s-7.162 16-16 16zM416 320h-320c-8.838 0-16-7.163-16-16s7.162-16 16-16h320c8.838 0 16 7.163 16 16s-7.162 16-16 16zM416 224h-320c-8.838 0-16-7.163-16-16s7.162-16 16-16h320c8.838 0 16 7.162 16 16s-7.162 16-16 16zM416 415.997l-320 0.003c-8.834 0-16-7.163-16-16s7.162-16 16-16l320-0.004c8.834 0 16 7.163 16 16s-7.162 16-16 16z" />
			<glyph unicode="&#xe018;" glyph-name="geoip" d="M432 32h-160v96.656c20.268 1.663 39.964 6.498 58.739 14.439 22.865 9.671 43.397 23.514 61.024 41.141s31.469 38.16 41.141 61.024c10.017 23.681 15.096 48.827 15.096 74.739s-5.079 51.058-15.096 74.739c-9.671 22.865-23.514 43.397-41.141 61.024s-38.16 31.47-61.024 41.141c-23.681 10.017-48.827 15.095-74.739 15.095s-51.058-5.079-74.739-15.095c-22.865-9.671-43.397-23.513-61.025-41.141s-31.469-38.16-41.141-61.024c-10.017-23.681-15.096-48.827-15.096-74.739s5.079-51.058 15.095-74.739c9.671-22.865 23.513-43.397 41.141-61.024s38.16-31.469 61.025-41.141c18.775-7.942 38.471-12.776 58.739-14.439v-96.656h-160c-8.837 0-16-7.163-16-16s7.163-16 16-16h352c8.837 0 16 7.163 16 16s-7.163 16-16 16zM198 254.514c-3.040 15.812-4.931 32.399-5.658 49.486h127.317c-0.726-17.087-2.618-33.674-5.658-49.486-0.174-0.906-0.356-1.805-0.536-2.702-18.344 2.748-37.694 4.188-57.464 4.188-19.771 0-39.12-1.44-57.464-4.188-0.181 0.898-0.362 1.796-0.536 2.702zM213.998 437.829c6.377 14.031 13.903 25.313 21.763 32.626 6.806 6.334 13.615 9.545 20.239 9.545s13.433-3.211 20.239-9.545c7.86-7.314 15.385-18.596 21.763-32.626 2.632-5.792 5.048-11.975 7.243-18.512-15.813-2.2-32.289-3.317-49.246-3.317s-33.433 1.117-49.245 3.317c2.195 6.537 4.611 12.719 7.244 18.512zM198.536 388.188c18.344-2.748 37.693-4.188 57.464-4.188s39.12 1.44 57.464 4.188c0.181-0.899 0.362-1.796 0.536-2.702 3.040-15.811 4.932-32.399 5.658-49.485h-127.317c0.726 17.087 2.618 33.674 5.658 49.486 0.174 0.906 0.356 1.804 0.536 2.702zM235.761 169.545c-7.859 7.314-15.386 18.596-21.763 32.627-2.632 5.793-5.049 11.976-7.244 18.512 15.814 2.2 32.29 3.317 49.246 3.317s33.433-1.118 49.245-3.317c-2.195-6.538-4.611-12.719-7.243-18.512-6.377-14.031-13.903-25.313-21.763-32.627-6.806-6.333-13.615-9.544-20.239-9.544s-13.433 3.212-20.239 9.545zM318.813 172.799c2.923 4.99 5.702 10.368 8.32 16.13 3.639 8.005 6.903 16.597 9.781 25.663 10.846-2.72 21.008-5.993 30.197-9.716-14.097-13.618-30.329-24.401-48.298-32.078zM388.611 230.423c-13.060 6.072-27.805 11.161-43.745 15.161 3.709 18.417 6.018 38.099 6.815 58.416h63.536c-1.575-15.957-5.519-31.464-11.783-46.273-4.067-9.615-9.022-18.737-14.822-27.304zM415.216 336h-63.536c-0.798 20.317-3.107 39.999-6.815 58.416 15.942 4 30.687 9.089 43.746 15.161 5.799-8.567 10.755-17.688 14.822-27.303 6.264-14.809 10.208-30.316 11.784-46.274zM367.111 435.122c-9.188-3.724-19.351-6.996-30.197-9.716-2.878 9.067-6.142 17.659-9.781 25.665-2.619 5.761-5.398 11.14-8.32 16.129 17.968-7.677 34.201-18.46 48.298-32.078zM193.186 467.2c-2.922-4.989-5.702-10.368-8.32-16.129-3.639-8.006-6.903-16.599-9.781-25.665-10.847 2.72-21.010 5.992-30.198 9.715 14.098 13.619 30.331 24.402 48.299 32.079zM123.388 409.575c13.061-6.072 27.805-11.161 43.747-15.16-3.709-18.417-6.018-38.099-6.815-58.415h-63.535c1.575 15.957 5.519 31.464 11.783 46.273 4.067 9.615 9.022 18.736 14.82 27.302zM96.784 304h63.535c0.798-20.317 3.107-39.998 6.815-58.415-15.942-3.999-30.686-9.088-43.747-15.16-5.799 8.567-10.754 17.687-14.821 27.302-6.263 14.809-10.207 30.316-11.783 46.273zM144.887 204.879c9.189 3.724 19.351 6.995 30.198 9.716 2.878-9.067 6.142-17.659 9.781-25.665 2.619-5.762 5.398-11.14 8.32-16.13-17.969 7.678-34.202 18.461-48.299 32.079z" />
			<glyph unicode="&#xe019;" glyph-name="conditionalcontent" d="M400 288h-240v96c0 52.925 43.075 96 96 96s96-43.075 96-96v-16h32v16c0 70.575-57.425 128-128 128s-128-57.425-128-128v-96h-16c-26.475 0-48-21.55-48-48v-192c0-26.475 21.525-48 48-48h288c26.475 0 48 21.525 48 48v192c0 26.475-21.525 48-48 48zM416 48c0-8.825-7.175-16-16-16h-288c-8.825 0-16 7.175-16 16v192c0 8.825 7.175 16 16 16h288c8.825 0 16-7.175 16-16v-192zM352 192h-192c-8.825 0-16-7.175-16-16s7.175-16 16-16h192c8.825 0 16 7.175 16 16s-7.175 16-16 16zM352 128h-192c-8.825 0-16-7.175-16-16s7.175-16 16-16h192c8.825 0 16 7.175 16 16s-7.175 16-16 16z" />
			<glyph unicode="&#xe01a;" glyph-name="simpleusernotes" d="M432 288h-93.375c-13.725 31.4-37.15 57.575-66.85 74.675 10.6 15.775 16.25 34.325 16.225 53.325 0 52.925-43.075 96-96 96s-96-43.075-96-96c0-19.3 5.65-37.675 16.15-53.325-49.275-28.3-80.15-80.75-80.15-138.675v-112c0-26.475 21.525-48 48-48h112v-16c0-26.475 21.525-48 48-48h192c26.475 0 48 21.525 48 48v192c0 26.475-21.525 48-48 48zM192 480c35.3 0 64-28.7 64-64s-28.7-64-64-64c-35.35 0-64 28.65-64 64 0 35.3 28.7 64 64 64zM80 96c-8.825 0-16 7.175-16 16v112c-0.075 48.65 27.5 93.125 71.125 114.675 33.825-24.9 79.9-24.875 113.725 0.025 22.6-11.225 41.375-28.85 54-50.675h-62.85c-26.475 0-48-21.55-48-48v-144h-112zM448 48c0-8.825-7.175-16-16-16h-192c-8.825 0-16 7.175-16 16v192c0 8.825 7.175 16 16 16h192c8.825 0 16-7.175 16-16v-192zM384 128h-96c-8.825 0-16-7.175-16-16s7.175-16 16-16h96c8.825 0 16 7.175 16 16s-7.175 16-16 16zM384 192h-96c-8.825 0-16-7.175-16-16s7.175-16 16-16h96c8.825 0 16 7.175 16 16s-7.175 16-16 16z" />
			<glyph unicode="&#xe01b;" glyph-name="bettertrash" d="M400 384.003h-288c-26.469 0-48-21.531-48-48v-288.003c0-26.469 21.531-48 48-48h288c26.469 0 48 21.531 48 47.997v288.003c0 26.466-21.531 47.996-48 48.003zM416 47.997c0-8.822-7.178-15.997-16-15.997h-288c-8.822 0-16 7.178-16 16v288.003c0 8.822 7.178 16 16 16h287.997c8.825 0 16.003-7.181 16.003-16.003v-288.003zM80 416h352c8.837 0 16 7.163 16 16s-7.163 16-16 16h-112v48c0 8.837-7.163 16-16 16h-96c-8.838 0-16-7.163-16-16v-48h-112c-8.838 0-16-7.163-16-16s7.162-16 16-16zM224 480h64v-32h-64v32zM176 320c-8.838 0-16-7.163-16-16v-232c0-8.837 7.162-16 16-16s16 7.163 16 16v232c0 8.837-7.162 16-16 16zM256 320c-8.838 0-16-7.163-16-16v-232c0-8.837 7.162-16 16-16s16 7.163 16 16v232c0 8.837-7.163 16-16 16zM336 320c-8.837 0-16-7.163-16-16v-232c0-8.837 7.163-16 16-16s16 7.163 16 16v232c0 8.837-7.163 16-16 16z" />
			<glyph unicode="&#xe01c;" glyph-name="quickindex" d="M475.314 35.686c-3.124-3.123-7.219-4.686-11.314-4.686s-8.189 1.563-11.314 4.686l-128 128c-6.248 6.249-6.248 16.38 0 22.628 6.249 6.249 16.38 6.249 22.628 0l128-128c6.249-6.248 6.249-16.379 0-22.628zM339.42 256.715c-8.060-19.055-19.594-36.164-34.282-50.854-14.689-14.688-31.799-26.223-50.854-34.281-19.735-8.347-40.691-12.58-62.284-12.58s-42.548 4.232-62.284 12.58c-19.055 8.059-36.164 19.593-50.854 34.281-14.689 14.689-26.223 31.799-34.282 50.854-8.347 19.736-12.58 40.691-12.58 62.285 0 21.593 4.232 42.549 12.58 62.285 8.059 19.055 19.594 36.164 34.282 50.853 14.689 14.688 31.798 26.224 50.854 34.282 19.736 8.348 40.691 12.58 62.284 12.58s42.548-4.232 62.284-12.58c19.055-8.059 36.164-19.594 50.854-34.282 14.688-14.688 26.223-31.798 34.282-50.853 8.348-19.736 12.58-40.691 12.58-62.285s-4.232-42.549-12.58-62.285zM320 319c0 70.579-57.421 128-128 128s-128-57.421-128-128 57.42-128 128-128c70.579 0 128 57.421 128 128z" />
			<glyph unicode="&#xe01d;" glyph-name="articlesfield" d="M288 336h128c8.837 0 16 7.163 16 16s-7.163 16-16 16h-128c-8.837 0-16-7.163-16-16s7.163-16 16-16zM416 288h-48c-8.837 0-16-7.163-16-16s7.163-16 16-16h48c8.837 0 16 7.163 16 16s-7.163 16-16 16zM288 416h128c8.837 0 16 7.163 16 16s-7.163 16-16 16h-128c-8.837 0-16-7.163-16-16s7.163-16 16-16zM464 512h-224.004c-26.465-0.007-47.996-21.538-47.996-48.003v-111.997c0-8.837 7.162-16 16-16s16 7.163 16 16v111.997c0 8.822 7.178 16.003 16 16.003h223.997c8.825 0 16.003-7.181 16.003-16.003v-224c0-8.822-7.178-15.997-16-15.997h-224c-8.822 0-16 7.175-16 15.997v16.003c0 8.837-7.162 16-16 16s-16-7.163-16-16v-16.003c0-26.466 21.531-47.997 48-47.997h224c26.469 0 48 21.531 48 47.997v224c0 26.466-21.531 47.997-48 48.003zM224 176h-128c-8.838 0-16-7.163-16-16s7.162-16 16-16h128c8.838 0 16 7.163 16 16s-7.162 16-16 16zM144 256h-48c-8.838 0-16-7.163-16-16s7.162-16 16-16h48c8.838 0 16 7.163 16 16s-7.162 16-16 16zM224 96h-128c-8.838 0-16-7.163-16-16s7.162-16 16-16h128c8.838 0 16 7.163 16 16s-7.162 16-16 16zM304 176c-8.837 0-16-7.163-16-16v-112.003c0-8.822-7.178-15.997-16-15.997h-224c-8.822 0-16 7.175-16 15.997v224c0 8.822 7.178 16.003 16 16.003h223.997c8.825 0 16.003-7.182 16.003-16.004v-15.996c0-8.837 7.163-16 16-16s16 7.163 16 16v15.996c0 26.466-21.531 47.997-48 48.004h-224.003c-26.465-0.006-47.997-21.538-47.997-48.004v-224c0-26.466 21.532-47.997 48-47.997h224c26.469 0 48 21.531 48 47.997v112.003c0 8.837-7.163 16-16 16z" />
			<glyph unicode="&#xe01e;" glyph-name="keyboardshortcuts" d="M464 96h-416c-26.467 0-48 21.532-48 47.998v224.002c0 26.466 21.532 47.999 47.998 48.001h416.002c26.468-0.002 48-21.536 48-48.001v-224.002c0-26.466-21.533-47.998-48-47.998zM48 384c-8.822-0.001-16-7.179-16-16.001v-224.002c0-8.822 7.178-15.998 16-15.998h416c8.822 0 16 7.177 16 15.998v224.002c0 8.822-7.178 16.001-16.002 16.001h-415.998zM344 176h-176c-8.837 0-16 7.163-16 16s7.163 16 16 16h176c8.837 0 16-7.163 16-16s-7.163-16-16-16zM104 303.999h-16c-8.837 0-16 7.163-16 16s7.163 16 16 16h16c8.837 0 16-7.163 16-16s-7.163-16-16-16zM184 304.002h-16c-8.837 0-16 7.163-16 16s7.163 16 16 16h16c8.837 0 16-7.163 16-16s-7.163-16-16-16zM264 304.002h-16c-8.837 0-16 7.163-16 16s7.163 16 16 16h16c8.837 0 16-7.163 16-16s-7.163-16-16-16zM104 240h-16c-8.837 0-16 7.163-16 16s7.163 16 16 16h16c8.837 0 16-7.163 16-16s-7.163-16-16-16zM184 240.002h-16c-8.837 0-16 7.163-16 16s7.163 16 16 16h16c8.837 0 16-7.163 16-16s-7.163-16-16-16zM264 240.002h-16c-8.837 0-16 7.163-16 16s7.163 16 16 16h16c8.837 0 16-7.163 16-16s-7.163-16-16-16zM344 303.999h-16c-8.837 0-16 7.163-16 16s7.163 16 16 16h16c8.837 0 16-7.163 16-16s-7.163-16-16-16zM424 303.999h-16c-8.837 0-16 7.163-16 16s7.163 16 16 16h16c8.837 0 16-7.163 16-16s-7.163-16-16-16zM344 240h-16c-8.837 0-16 7.163-16 16s7.163 16 16 16h16c8.837 0 16-7.163 16-16s-7.163-16-16-16zM424 240h-16c-8.837 0-16 7.163-16 16s7.163 16 16 16h16c8.837 0 16-7.163 16-16s-7.163-16-16-16zM104 176h-16c-8.837 0-16 7.163-16 16s7.163 16 16 16h16c8.837 0 16-7.163 16-16s-7.163-16-16-16zM424 176h-16c-8.837 0-16 7.163-16 16s7.163 16 16 16h16c8.837 0 16-7.163 16-16s-7.163-16-16-16z" />
			<glyph unicode="&#xe100;" glyph-name="nonumber" d="M512 159c0-13.255-10.745-24-24-24h-82.5c-13.255 0-24 10.745-24 24s10.745 24 24 24h82.5c13.255 0 24-10.745 24-24zM301.5 159c0 13.255-10.745 24-24 24h-253.5c-13.255 0-24-10.745-24-24s10.745-24 24-24h253.5c13.255 0 24 10.745 24 24zM210.5 351c0-13.255 10.745-24 24-24h253.5c13.255 0 24 10.745 24 24s-10.745 24-24 24h-253.5c-13.255 0-24-10.745-24-24zM24 327c0.003 0 0.007 0 0.010 0l82.494 0.035c13.255 0.005 23.996 10.755 23.99 24.010-0.005 13.252-10.75 23.99-24 23.99-0.003 0-0.008 0-0.011 0l-82.493-0.035c-13.255-0.006-23.996-10.756-23.99-24.010 0.006-13.251 10.75-23.99 24-23.99zM106.424 118.131c-12.771 3.547-26-3.93-29.547-16.701l-20-72c-3.548-12.771 3.93-26.001 16.701-29.549 2.149-0.597 4.31-0.881 6.437-0.881 10.511 0 20.16 6.961 23.111 17.582l20 72c3.546 12.772-3.931 26.001-16.702 29.549v0zM128.604 199.862c2.141-0.592 4.292-0.874 6.41-0.874 10.522 0 20.178 6.976 23.118 17.61l73 264c3.533 12.775-3.96 25.995-16.735 29.527-12.774 3.533-25.995-3.96-29.528-16.735l-73-264c-3.533-12.775 3.959-25.995 16.735-29.528zM405.576 391.869c2.149-0.597 4.311-0.881 6.438-0.881 10.512 0 20.16 6.96 23.111 17.582l20 72c3.547 12.771-3.931 26-16.701 29.548-12.772 3.547-26.001-3.93-29.549-16.7l-20-72c-3.547-12.771 3.93-26.001 16.701-29.549zM383.397 310.138c-12.774 3.533-25.996-3.96-29.528-16.735l-73-264c-3.532-12.775 3.96-25.996 16.735-29.527 2.141-0.593 4.292-0.875 6.41-0.875 10.522 0 20.178 6.975 23.118 17.609l73 264c3.532 12.775-3.96 25.996-16.735 29.528v0z" />
		</font>
</defs>
</svg>
